Jump to content

robertos

Bywalec
  • Content Count

    701
  • Joined

  • Last visited

Community Reputation

86 Good

1 Follower

About robertos

  • Rank
    bardzo zaawansowany

Dodatkowe

  • odtwarzacz
    DX156, Sony A45
  • słuchawki
    Aune E1,ATHM50X

Ogólne

  • Gender
    Male
  • Location
    Wrocław

Recent Profile Visitors

The recent visitors block is disabled and is not being shown to other users.

  1. A45 ma tyle samo: https://www.cnet.com/products/sony-walkman-nw-a45-digital-player-nwa45b/
  2. activo ma CS4398
  3. Może poczekaj na ibasso dx160. Ma się pojawić w sprzedaży we wrześniu pewnie będzie kosztował jakieś 1600 zł. Wysłane z mojego MI 5 przy użyciu Tapatalka
  4. SR15 na gwarancji za 1700: https://allegro.pl/oferta/odtwarzacz-dap-astell-kern-sr-15-8419263391
  5. to nie to: https://github.com/Lurker00/DX200-USB-Audio-Release/blob/master/README.md ?
  6. ale to chyba całkiem inne granie niz E1
  7. pamietam jak te ~25 lat temu kaseta mi sie caly czas wkręcała w magnetofonie:
  8. Przesuń palcem w dół i wybierz przesył danych zamiast ładowania Wysłane z mojego MI 5 przy użyciu Tapatalka
  9. pytanie do użytkowników AMP9 - czy amp zmienia się wraz z wygrzewaniem? jesli tak, to w którą stronę idą zmiany wg Was?
  10. robertos

    Muzyczne Zakupy

    Jak wypada na tle 150tki na tym samym ampie? Duży progress? Wysłane z mojego MI 5 przy użyciu Tapatalka
  11. Hej, ktoś we Wrocławiu miałby pożyczyć na dzień max 2 Amp9? Myślę na zakupem ale zachwytów na forum jakoś brak i szkoda w ciemno tysiaka wywalić

    1. Show previous comments  4 more
    2. atr3yu

      atr3yu

      @Vaiet na Mango nie jest głośniej tylko tam skala jest do 100 a na andku jest do 150, i np 100 na andku odpowiada 75 na mango, przynajmniej ja to tak widzę :)

    3. robertos

      robertos

      @Loke13 czemu wracałeś z Amp 8 do 6? Nie podszedł?

    4. Loke13

      Loke13

      @robertos podszedl i to bardzo, ale trafiła się okazja wymienić amp8 na fiio m11 i grzechem było by nie skorzystać😉

  12. robertos

    Metal

    Godsmack - When Legends Rise (2018) - jak tego słuchać? Analyzed: Godsmack / When Legends Rise -------------------------------------------------------------------------------- DR Peak RMS Duration Track -------------------------------------------------------------------------------- DR4 -0.12 dB -5.65 dB 2:53 01-When Legends Rise DR5 -0.12 dB -5.85 dB 2:57 02-Bulletproof DR4 -0.12 dB -5.67 dB 3:28 03-Unforgettable DR4 -0.12 dB -5.83 dB 3:20 04-Every Part of Me DR5 -0.12 dB -5.96 dB 3:16 05-Take it To The Edge DR4 -0.12 dB -5.93 dB 3:51 06-Under Your Scars DR5 -0.12 dB -6.63 dB 4:45 07-Someday DR5 -0.12 dB -5.49 dB 3:10 08-Just One Time DR5 -0.12 dB -6.11 dB 3:38 09-Say My Name DR5 -0.12 dB -6.62 dB 3:41 10-Let It Out DR5 -0.12 dB -6.83 dB 3:21 11-Eye of The Storm -------------------------------------------------------------------------------- Number of tracks: 11 Official DR value: DR5
  13. @Spawn masz jeszcze DX150 czy testowałeś tylko z 220?
  14. Mógłbyś w wątku o dx150 napisać krótkie porównanie AMP6 i 9? Czego można się spodziewać po przejściu na 9?
×
×
  • Create New...

Important Information

Register to have access to community resources. Forum rules Terms of Use and privacy anc cookies policy Privacy Policy