Skocz do zawartości
FiiO FA1 - przedsprzedaż Czytaj więcej.. ×
Cowon Plenue D2 - preorder Czytaj więcej.. ×
Promocja Mp3store - Zamrożone Ceny! Czytaj więcej.. ×

czaps

Zarejestrowany
  • Zawartość

    41
  • Rejestracja

  • Ostatnia wizyta

Reputacja

9 Neutral

O czaps

  • Tytuł
    początkujący

Dodatkowe

  • odtwarzacz
    iAudio X5 RB
  • słuchawki
    Custom Street
  • testuję
    cierpliwość
  • chcę
    ^_^

Ostatnie wizyty

Blok z ostatnimi odwiedzającymi dany profil jest wyłączony i nie jest wyświetlany użytkownikom.

  1. czaps

    O wszystkim i o niczym.

    ej no rozumiem, w sumie sam jestem ciekaw czy przy ślepym teście co bym odczuł w różnicy, ale tu chodzi no o to by się udało, bo już sobie wkręciłem i po prostu chcę to zrobić, a w zasadzie od zawsze ripuje EAC'em i tak mi jakoś najwygodniej.
  2. czaps

    O wszystkim i o niczym.

    ripował ktoś eac'em, a kompresował przy pomocy CUEtools? FLACCL wykorzystuje on GPU i daję większa dokładność. nie wiem tylko jak poprawnie to wszystko skonfigurować...
  3. czaps

    Okazje z allegro i nie tylko

    Acoustic Research M200 za $99.99 na Massdropie.
  4. czaps

    Okazje z allegro i nie tylko

    https://www.x-kom.pl/p/397058-sluchawki-przewodowe-fiio-f9-czarne.html Fiio F9 za 349pln z kodem: walentynki
  5. czaps

    Cowon Plenue D2 - pre order

    do tego teoretycznie 30h grania z flacami, pamięć wewnętrzna i dobre recenzje brata na tym samym, ale pojedynczym dacu ... i made in korea nie chiny, też mam sentyment do tej firmy...
  6. czaps

    O wszystkim i o niczym.

    No właśnie, ale co to za patent, że majfrend to ziomek i robi mi prezent czy co?
  7. czaps

    O wszystkim i o niczym.

    Tak też na logikę brałem, jak kupiłem na kickstarterze dripper to chcieli ode mnie dowód zakupu na cle, więc tutaj też jak będzie kontrola będą chcieli wyciąg z konta, to raz, a dwa jak paczka zaginie to ubezpieczona tylko do 29$ i kombinatorka nie ma sensu. Tak czułem i raczej transparentność tylko może nas uratować, dzięki za odpowiedź Panowie.
  8. czaps

    Ciekawe droższe słuchawki z Chin

    zamówiłem słuchawki u majfrenda za ok. 200$ przez DHL'a i napisał mi, że może zaniżyć realną wartość na przesyłce na 29$, takie działanie ma sens? jak to jest, nie mam doświadczenia niestety....
  9. czaps

    Czego słuchasz w tym momencie?

    niezłe świry, tak btw, to jest podziemny rap, a album ma niezłą dynamikę: " foobar2000 1.4.1 / Dynamic Range Meter 1.1.1 log date: 2019-02-11 21:32:28 -------------------------------------------------------------------------------- Analyzed: LSO / CMAZ -------------------------------------------------------------------------------- DR Peak RMS Duration Track -------------------------------------------------------------------------------- DR8 -3.14 dB -13.05 dB 2:08 01-Serce DR10 -0.79 dB -12.83 dB 2:45 02-10te Piętro DR10 -0.60 dB -12.75 dB 1:51 03-Tango DR12 -0.44 dB -14.96 dB 2:38 04-Po Co To Nam DR13 -0.07 dB -16.05 dB 3:10 05-Na Księżyc DR11 -0.16 dB -14.59 dB 2:38 06-CMAZ Stereo DR10 -0.97 dB -14.34 dB 2:22 07-Wystarczy Twój Uśmiech DR11 -0.79 dB -13.55 dB 2:17 08-Godzina Młoda DR10 -0.44 dB -15.28 dB 2:10 09-Zew DR10 -0.65 dB -13.02 dB 2:50 10-A Jak Chcesz DR12 -0.66 dB -14.30 dB 2:19 11-Coś Więcej DR12 -0.81 dB -16.04 dB 2:20 12-Czy Będziesz Tam DR10 -0.77 dB -13.84 dB 2:29 13-Deszcz DR9 -1.86 dB -12.59 dB 2:29 14-Flex DR10 -0.80 dB -12.54 dB 2:26 15-Krokodyl Dundee DR11 -0.78 dB -14.11 dB 2:25 16-Mosty DR11 -0.65 dB -13.16 dB 2:23 17-Mówię To Tak DR13 0.00 dB -15.19 dB 3:32 18-Tyle Mocy DR11 -0.81 dB -13.98 dB 2:10 19-Na 3 Zmianie DR12 -0.28 dB -14.09 dB 1:49 20-Za To Życie Cudowne DR11 -0.47 dB -13.04 dB 3:38 21-Uśpieni -------------------------------------------------------------------------------- Number of tracks: 21 Official DR value: DR11 Samplerate: 44100 Hz Channels: 2 Bits per sample: 16 Bitrate: 840 kbps Codec: FLAC ================================================================================ "
  10. no i o to mi głównie chodziło, czyli po prostu trzeba sprawić słuchawki zbalansowane i tyle. temat do zamknięcia i kosza.
  11. Chcąc wykorzystać wyjście 2.5mm zbalansowane które jest w Shanlingu M5s, a mając póki co tylko słuchawki z wtykiem męskim 3.5mm, zastanawiam się czy jest sens zakupu? znalazłem ich sporo i czy one się w ogóle czymś różnią: https://pl.aliexpress.com/item/1-sztuk-Niklu-2-5mm-Wtyk-M-ski-do-3-5mm-1-8-Kobieta-Jack-Stereo/32863539000.html https://www.aliexpress.com/store/product/2-5mm-3-5mm-4-4mm-plug-male-to-female-seat/923848_32876989769.html https://www.aliexpress.com/item/Ugreen-2-5mm-Male-to-3-5mm-Female-Stereo-Full-Metal-Earphone-Audio-Headphone-Adapter-Connector/32696931711.html https://www.aliexpress.com/item/Audiocrast-15cm-Carbon-fiber-2-5mm-TRRS-Balanced-Male-to-3-5mm-Stereo-Female-Earphone-Audio/32963900160.html ?? W skrócie czy np. podpinając pod wyjście zbalansowane słuchawki Custom Street albo Musical Fidelity MF100 które mają wtyki 3.5mm cokolwiek poprawię sobie w odbiorze?
  12. czaps

    Fanklub Musical Fidelity

    w zasadzie no to siema, jestem posiadaczem MF100 od niedawna, ej modował je ktoś? w sensie rekabling, jakaś zabawa coś ten ma sens? bo te kabelki to jakieś lypne w nich 😉
  13. czaps

    Shanling M5s

    Z tego co ktoś tutaj pisał chodzi o algorytm szyfrujący pliki Tidala, którego nie chętnie udostępniają (albo w ogóle) mniejszym projektom w stylu OS MTouch 2.0...
  14. czaps

    Czego słuchasz w tym momencie?

    https://tidal.com/track/59945750
×

Powiadomienie o plikach cookie

Zarejestruj się aby mieć większy dostęp do zasobów forum. Przeczytaj regulamin Warunki użytkowania i warunki prywatności związane z plikami cookie Polityka prywatności